Sibel - TRUEFRENCH WEBRiP

Sibel - TRUEFRENCH WEBRiP

Sibel.2019.TRUEFRENCH.WEBRiP.XViD-STVFRV

Sibel

Tout public

Production2018 par Pyramide Distribution
Réalisé parÇağla Zencirci, Guillaume Giovanetti
AvecDamla Sönmez, Emin Gürsoy, Erkan Kolçak Köstendil, Elit İşcan
GenreDrame
Durée1h 35min
NationalitéAllemagne, France, Turquie, Luxembourg
Date de sortieCinéma : 6 mars 2019
Synopsis
Sibel, 25 ans, vit avec son père et sa sœur dans un village isolé des montagnes de la mer noire en Turquie. Sibel est muette mais communique grâce à la langue sifflée ancestrale de la région. Rejetée par les autres habitants, elle traque sans relâche un loup qui rôderait dans la forêt voisine, objet de fantasmes et de craintes des femmes du village. C’est là que sa route croise un fugitif. Blessé, menaçant et vulnérable, il pose, pour la première fois, un regard neuf sur elle.— Allociné voir la source
Informations sur l'upload
QualitéWEBRiP FormatAVI XviD
Langue releaseTRUEFRENCH LangagesFrançais (VFF)
Sous-titresFR Forcé HébergeurMulti
CompressionWinrar Taille700 Mo



Tous les liens sont Interchangeables: vous pouvez prendre chaque partie d'un hébergeur différent pour télécharger plusieurs fichiers en parallèle.
Vérifiez que vous êtes bien sur le bon site avant de télécharger, faites attention des sites escroc
Adresse:


Télécharger Sibel - TRUEFRENCH WEBRiP (Gratuit & Anonyme)


Liens de téléchargement






Liens de streaming







Être notifié d'une mise à jour de l'article






Sibel - TRUEFRENCH WEBRiP DVDRiP, télécharger Sibel - TRUEFRENCH WEBRiP, downlaod Sibel - TRUEFRENCH WEBRiP, télécharger Sibel - TRUEFRENCH WEBRiP gratuitement, Sibel - TRUEFRENCH WEBRiP uptobox, Sibel - TRUEFRENCH WEBRiP 1fichier, Sibel - TRUEFRENCH WEBRiP uploaded, Sibel - TRUEFRENCH WEBRiP free, Sibel - TRUEFRENCH WEBRiP VF Vostfr
Loading...
Veuillez vous connecter ou créer un nouveau compte gratuitement pour poster des commentaires

Commentaires:

PedroFritoCurrently Offline
#9
PedroFrito » 4 Juin 2020 12:03

Merci !

Groupe: Membre | Enregister: 12.10.2019 | Commentaires: 973 | Articles: 0
RAHAN-31Currently Offline
#8
RAHAN-31 » 4 Mars 2020 12:22

Merci

@ CrazyMad => Nous sommes bien d'accord sur la valeure des VOST. Quelle serait la procédure à suivre pour profiter de votre proposition ?

Groupe: Membre | Enregister: 29.06.2013 | Commentaires: 1368 | Articles: 0
CrazyMadCurrently Offline
#7
CrazyMad » 25 Fevrier 2020 19:40

 

Un très beau film, profond qui dénonce toute la médiocrité humaine.

Je l'ai en VO avec sous-titres "fr" si cela peut intéresser quelques vrais cinéphiles puisque dès qu'un film voit sa langue initiale doublée, il perd toute son âme...

 

 NFO :

 

Video
ID : 1
Format : AVC
Format/Info : Advanced Video Codec
Format profile : [email protected]
Format settings : CABAC / 4 Ref Frames
Format settings, CABAC : Yes
Format settings, Reference : 4 frames
Codec ID : V_MPEG4/ISO/AVC
Duration : 1 h 35 min
Bit rate mode : Constant
Bit rate : 7 017 kb/s
Nominal bit rate : 10 000 kb/s
Width : 1 920 pixels
Height : 800 pixels
Display aspect ratio : 2.40:1
Frame rate mode : Constant
Frame rate : 24.000 FPS
Color space : YUV
Chroma subsampling : 4:2:0
Bit depth : 8 bits
Scan type : Progressive
Bits/(Pixel*Frame) : 0.190
Stream size : 4.66 GiB (94%)
Default : Yes
Forced : No
Color range : Limited
Color primaries : BT.709
Transfer characteristics : BT.709
Matrix coefficients : BT.709

 

Audio
ID : 2
Format : AC-3
Format/Info : Audio Coding 3
Commercial name : Dolby Digital
Codec ID : A_AC3
Duration : 1 h 35 min
Bit rate mode : Constant
Bit rate : 448 kb/s
Channel(s) : 6 channels
Channel layout : L R C LFE Ls Rs
Sampling rate : 48.0 kHz
Frame rate : 31.250 FPS (1536 SPF)
Compression mode : Lossy
Stream size : 305 MiB (6%)
Title : Tur 6ch
Language : Turkish
Service kind : Complete Main
Default : Yes
Forced : No

 

Text
ID : 3
Format : UTF-8
Codec ID : S_TEXT/UTF8
Codec ID/Info : UTF-8 Plain Text
Duration : 1 h 35 min
Bit rate : 20 b/s
Count of elements : 462
Stream size : 13.7 KiB (0%)
Title : Fr
Language : French
Default : Yes
Forced : No

Groupe: Membre | Enregister: 2.02.2017 | Commentaires: 11 | Articles: 0
PrettyfaceCurrently Offline
#6
Prettyface » 25 Fevrier 2020 11:40

Actrice visiblement magnifique... je vais patienter en attendant une version en qualité supérieure ;)

Groupe: Membre | Enregister: 15.08.2018 | Commentaires: 219 | Articles: 0

--------------------
la meuseCurrently Offline
#5
la meuse » 25 Fevrier 2020 06:31
merci pour le lien remis " Casafilm "
Groupe: Membre | Enregister: 14.12.2016 | Commentaires: 1257 | Articles: 0
la meuseCurrently Offline
#4
la meuse » 24 Fevrier 2020 19:08
lien uptobox hors service .... Merci de le réupload
Groupe: Membre | Enregister: 14.12.2016 | Commentaires: 1257 | Articles: 0
plaza13Currently Offline
#3
plaza13 » 24 Fevrier 2020 10:48

Citation: Berthe
Bonjour,
merci pour le post très bon film
pas de MKV ??
il a quel gout ?

Groupe: Membre | Enregister: 28.11.2016 | Commentaires: 496 | Articles: 0
frro93Currently Offline
#2
frro93 » 23 Fevrier 2020 14:45

Citation: Berthe
Bonjour,
merci pour le post très bon film
pas de MKV ??

 

+ 1 pour HD ... parcequ'elle le vaut bien...

Groupe: Membre | Enregister: 23.05.2019 | Commentaires: 239 | Articles: 0
BertheCurrently Offline
#1
Berthe » 23 Fevrier 2020 13:21

Bonjour,

merci pour le post très bon film

pas de MKV ??

Groupe: Membre | Enregister: 11.05.2017 | Commentaires: 18 | Articles: 0
Information
Les Invités ne peuvent pas laisser de commentaires. Merci de vous enregister !
À propos
Extreme Download (extreme-down.com) n'héberge aucun fichier. La loi vous autorise à télécharger un fichier seulement si vous en possédez l'original.
Ni Extreme Download, ni nos hébergeurs, ni personne ne pourront êtres tenu responsables d'une mauvaise utilisation de ce site.
Suivez nous
Abonnez-vous pour recevoir les nouveautés par mail

Calendrier
«    Juillet 2020    »
 12345
6789101112
13141516171819
20212223242526
2728293031 
Copyright © 2008-2020 - Règlement - DMCA/Abuse
Retour en haut